Авторизация

Пройдите регистрацию и станьте пользователем...
Скрывать рекламу
Оцените наш сайт

Всего голосов: 59

реклама
Besucherzahler male order brides russia
счетчик посещений

AC-DC-Live At The Circus Krone-2003

03.12.2021     Автор: Гость


AC-DC-Live At The Circus Krone-2003.avi
Format : AVI
File size : 1.96 GiB
Duration : 1h 48mn
Overall bit rate : 2 589 Kbps
Video
Format : MPEG-4 Visual
Codec ID/Hint : DivX 5
Bit rate : 2 258 Kbps
Width : 720 pixels
Height : 404 pixels
Display aspect ratio : 16:9
Stream size : 1.71 GiB (87%)
Audio
Format : AC-3
Bit rate : 320 Kbps
Channel(s) : 2 channels
Sampling rate : 48.0 KHz
Stream size : 248 MiB (12%)

Playlist:
1-Hell Ain't a Bad Place to Be
2-Back in Black
3-Stiff Upper Lip
4-Shoot to Thrill
5-Thunderstruck
6-Rock 'n' Roll Damnation
7-What's Next to the Moon
8-Hard as a Rock
9-Bad Boy Boogie
10-The Jack
11-If You Want Blood (You've Got It)
12-Hells Bells
13-Dirty Deeds Done Dirt Cheap
14-Rock 'n' Roll Ain't Noise Pollution
15-T.N.T.
16-Let There Be Rock
17-Highway to Hell
18-For Those About to Rock (We Salute You)
19-Whole Lotta Rosie


Гость, для того чтобы смотреть фильм"AC-DC-Live At The Circus Krone-2003", Вам нужно кликнуть по рекламным ссылкам.

Просмотров: 665   | Комментарии: (0)
Всего комментариев: 0
Добавлять комментарии могут только зарегистрированные пользователи.
[ Регистрация | Вход ]
Категории раздела
Боевик [116]
Ужасы [47]
Триллеры [90]
Комедия [43]
Драма [68]
Мультфильмы [43]
Фантастика [64]
Видеоклипы [20]
Документальные [1]
Спорт [17]
Концерты [6]
Наше кино [77]
Comedy Club [4]
Шоу и Передачи [5]
Союзмультфильм [18]
Приколы [17]
Театр [1]
Индийское кино [5]
Статистика
Замена батарей
Онлайн всего: 1
Гостей: 1
Пользователей: 0
       Популярное
Страх.com  FearDotCom (2002) DVDRip
Страх.com FearDotCom (2002) DVDRip
Аватар  Avatar (2009) DVDRip [Лицензия]
Аватар Avatar (2009) DVDRip [Лицензия]
Вспомнить все.(Индия)2005
Вспомнить все.(Индия)2005
Чистилище (1997) DVDRip  ru
Чистилище (1997) DVDRip ru
Мульт-концерт
Мульт-концерт
Приказ Огонь не открывать (1981) DVDrip
Приказ Огонь не открывать (1981) DVDrip
Битва Титанов / Clash Of The Titans (2010) CAMRip
Битва Титанов / Clash Of The Titans (2010) CAMRip
9 рота 2005 [DVDRip]
9 рота 2005 [DVDRip]
Реальный папа (2008) / DVDRip
Реальный папа (2008) / DVDRip
Опалённые Кандагаром(1989)DVDRip
Опалённые Кандагаром(1989)DVDRip
Битва Титанов / Clash of the Titans (2010) HDRip, Дублированное [лицензия]
Битва Титанов / Clash of the Titans (2010) HDRip, Дублированное [лицензия]
Невероятный Халк / The Incredible Hulk
Невероятный Халк / The Incredible Hulk
Время ведьм
Время ведьм
Бегемот / Behemoth (2011)
Бегемот / Behemoth (2011)
Иерро / Hierro (2009)
Иерро / Hierro (2009)
Контейнер / Salvage (2009)
Контейнер / Salvage (2009)
Гадкий я / Despicable Me (2010)
Гадкий я / Despicable Me (2010)
Зона мёртвых / Апокалипсис мёртвых 2010
Зона мёртвых / Апокалипсис мёртвых 2010
"Орел Девятого легиона" (2011)
"Орел Девятого легиона" (2011)
Быстрые свидания / Speed-Dating (2010)
Быстрые свидания / Speed-Dating (2010)